Revenir en arrière   > Cinématique > Télécharger Films Sous-titres Francais [VO/VOSTFR]

News & Announcements


Comment télécharger un fichier Torrent sur laquillen.com [TUTORIEL]



Répondre
 
Outils du sujet Affichage du sujet
Ancien 19/05/2017, 18h25   #1
Identité
Informations
Inscrit : avril 2017
Messages: 403
Remerciements: 3
Remercié 483 fois dans 296 messages
réputation: 1 maddycze is on a distinguished road
Smile Hindi Medium (2017) 1CD DESI-PDVD MP4 HINDI x264 [DiCT]



Hindi Medium (2017) 1CD DESI-PDVD MP4 HINDI x264 [DiCT]




Plot:-

A couple from Chandni Chowk aspire to give their daughter the best education and thus be a part of and accepted by the elite of Delhi.
Director: Saket Chaudhary
Stars: Irrfan Khan, Saba Qamar, Deepak Dobriyal


Citation:
Format : MPEG-4
Format profile : Base Media / Version 2
Codec ID : mp42 (isom/iso2/avc1/mp41)
File size : 686 MiB
Duration : 2 h 8 min
Overall bit rate mode : Variable
Overall bit rate : 744 kb/s

Video
ID : 1
Format : AVC
Format/Info : Advanced Video Codec
Format profile : [email protected]
Format settings, CABAC : Yes
Format settings, ReFrames : 4 frames
Codec ID : avc1
Codec ID/Info : Advanced Video Coding
Duration : 2 h 8 min
Bit rate : 640 kb/s
Width : 640 pixels
Height : 416 pixels
Display aspect ratio : 4:3
Original display aspect ratio : 4:3
Frame rate mode : Constant
Frame rate : 25.000 FPS
Color space : YUV
Chroma subsampling : 4:2:0
Bit depth : 8 bits
Scan type : Progressive
Bits/(Pixel*Frame) : 0.096
Stream size : 590 MiB (86%)
Writing library : x264 core 142 r2491 24e4fed

Audio
ID : 2
Format : AAC
Format/Info : Advanced Audio Codec
Format profile : LC
Codec ID : 40
Duration : 2 h 8 min
Bit rate mode : Variable
Bit rate : 96.0 kb/s
Channel(s) : 2 channels
Channel positions : Front: L R
Sampling rate : 44.1 kHz
Frame rate : 43.066 FPS (1024 spf)
Compression mode : Lossy
Stream size : 88.9 MiB (13%)
Title : Stereo / Stereo
Default : Yes
Alternate group : 1
Encoded date : UTC 2017-05-19 17:39:25
Tagged date : UTC 2017-05-19 17:39:25
Screenshots:-








LE CONTENU ET CACHÉ ! POUR AFFICHER LE CONTENU CACHÉ VOUS DEVEZ VOUS INSCRIRE OU VOUS CONNECTER PUIS UNE FOIS INSCRIRE OU CONNECTER VOUS DEVEZ CLIQUER SUR L'IMAGE THANKS OU UN COMMENTAIRE ET LA VOUS DÉBLOQUER LES LIENS CACHÉ

You may reply or click 'thank you' to see hidden content



If you like my post, don't forget to say Thanks.



maddycze, si vous désirez éditer votre signature, cliquez:

Répondre en citant
Le membre suivant vous remercie maddycze pour ce méssage:
direct+download (21/05/2017)
Répondre

Liens sociaux


Utilisateurs lisant actuellement ce sujet : 1 (0 membre(s) et 1 visiteur(s))
 
Outils du sujet
Affichage du sujet

Règles des messages
Vous ne pouvez pas créer de sujets
Vous ne pouvez pas répondre aux sujets
Vous ne pouvez pas importer de fichiers joints
Vous ne pouvez pas modifier vos messages

BB codes : Activé
Smileys : Activé
BB code [IMG] : Activé
Code HTML : Désactivé

Navigation du forum


Fuseau horaire : GMT. Il est 18h53.
Propulsé par direct-download® version 3.8.9 Copyright ©2000 - 2017, Jelsoft Enterprises Ltd.


Régie publicitaire Pubdirecte
Votre site en popunder ici